<?xml version="1.0" standalone="no"?>
<!DOCTYPE svg PUBLIC "-//W3C//DTD SVG 1.1//EN" "http://www.w3.org/Graphics/SVG/1.1/DTD/svg11.dtd" >
<svg xmlns="http://www.w3.org/2000/svg">
<metadata>Generated by IcoMoon</metadata>
<defs>
<font id="Wettstein" horiz-adv-x="1024">
<font-face units-per-em="1024" ascent="960" descent="-64" />
<missing-glyph horiz-adv-x="1024" />
<glyph unicode="&#x20;" horiz-adv-x="512" d="" />
<glyph unicode="&#xe145;" glyph-name="add" d="M810 384.667h-256v-256h-84v256h-256v84h256v256h84v-256h256v-84z" />
<glyph unicode="&#xe5c4;" glyph-name="arrow_back" d="M854 468.667v-84h-520l238-240-60-60-342 342 342 342 60-60-238-240h520z" />
<glyph unicode="&#xe5c8;" glyph-name="arrow_forward" d="M512 768.667l342-342-342-342-60 60 238 240h-520v84h520l-238 240z" />
<glyph unicode="&#xe5ca;" glyph-name="check" d="M384 248.667l452 452 60-60-512-512-238 238 60 60z" />
<glyph unicode="&#xe5cd;" glyph-name="close" d="M810 664.667l-238-238 238-238-60-60-238 238-238-238-60 60 238 238-238 238 60 60 238-238 238 238z" />
<glyph unicode="&#xe5d8;" glyph-name="arrow_upward" d="M170 426.667l342 342 342-342-62-60-238 238v-520h-84v520l-240-238z" />
<glyph unicode="&#xe5db;" glyph-name="arrow_downward" d="M854 426.667l-342-342-342 342 62 60 238-238v520h84v-520l240 238z" />
<glyph unicode="&#xe63e;" glyph-name="wifi" d="M214 384.667c166 164 432 164 596 0l-84-86c-118 118-310 118-428 0zM384 212.667c70 70 186 70 256 0l-128-128zM42 554.667c260 258 682 258 940 0l-86-86c-212 212-556 212-768 0z" />
<glyph unicode="&#xe87c;" glyph-name="face" d="M512 84.667c188 0 342 154 342 342 0 34-6 66-14 96-30-8-62-10-96-10-144 0-270 70-348 180-42-102-124-186-224-230-2-12-2-24-2-36 0-188 154-342 342-342zM512 852.667c236 0 426-190 426-426s-190-426-426-426-426 190-426 426 190 426 426 426zM640 436.667c30 0 54-22 54-52s-24-54-54-54-54 24-54 54 24 52 54 52zM384 436.667c30 0 54-22 54-52s-24-54-54-54-54 24-54 54 24 52 54 52z" />
<glyph unicode="&#xe8b5;" glyph-name="schedule" d="M534 640.667v-224l192-114-32-54-224 136v256h64zM512 84.667c188 0 342 154 342 342s-154 342-342 342-342-154-342-342 154-342 342-342zM512 852.667c236 0 426-190 426-426s-190-426-426-426-426 190-426 426 190 426 426 426z" />
<glyph unicode="&#xe900;" glyph-name="mail" d="M853.333 810.667h-682.667c-72.533 0-128-55.467-128-128v-512c0-72.533 55.467-128 128-128h682.667c72.533 0 128 55.467 128 128v512c0 72.533-55.467 128-128 128zM170.667 725.334h682.667c17.067 0 29.867-8.533 38.4-25.6l-379.733-264.533-379.733 264.533c8.533 17.067 21.333 25.6 38.4 25.6zM853.333 128h-682.667c-25.6 0-42.667 17.067-42.667 42.667v430.933l358.4-251.733c8.533-4.267 17.067-8.533 25.6-8.533s17.067 4.267 25.6 8.533l358.4 251.733v-430.933c0-25.6-17.067-42.667-42.667-42.667z" />
<glyph unicode="&#xe901;" glyph-name="menu" d="M896 469.334h-768c-25.6 0-42.667-17.067-42.667-42.667s17.067-42.667 42.667-42.667h768c25.6 0 42.667 17.067 42.667 42.667s-17.067 42.667-42.667 42.667zM128 640h768c25.6 0 42.667 17.067 42.667 42.667s-17.067 42.667-42.667 42.667h-768c-25.6 0-42.667-17.067-42.667-42.667s17.067-42.667 42.667-42.667zM896 213.334h-768c-25.6 0-42.667-17.067-42.667-42.667s17.067-42.667 42.667-42.667h768c25.6 0 42.667 17.067 42.667 42.667s-17.067 42.667-42.667 42.667z" />
<glyph unicode="&#xe902;" glyph-name="chevron-thin-down" d="M891.802 660.019c13.926 13.722 36.301 13.722 50.125 0s13.875-35.891 0-49.613l-404.89-400.896c-13.824-13.722-36.198-13.722-50.125 0l-404.89 400.896c-13.824 13.722-13.824 35.891 0 49.613 13.875 13.722 36.301 13.722 50.125 0l379.853-365.619 379.802 365.619z" />
<glyph unicode="&#xe903;" glyph-name="chevron-thin-left" d="M711.219 80.998c13.722-13.926 13.722-36.301 0-50.125s-35.891-13.875-49.613 0l-400.896 404.89c-13.722 13.824-13.722 36.198 0 50.125l400.896 404.89c13.722 13.824 35.891 13.824 49.613 0 13.722-13.875 13.722-36.301 0-50.125l-365.619-379.853 365.619-379.802z" />
<glyph unicode="&#xe904;" glyph-name="chevron-thin-right" d="M678.4 460.8l-365.619 379.904c-13.722 13.824-13.722 36.198 0 50.125 13.722 13.824 35.891 13.824 49.613 0l400.896-404.89c13.722-13.875 13.722-36.301 0-50.125l-400.896-404.89c-13.722-13.875-35.891-13.824-49.613 0-13.722 13.773-13.722 36.198 0 50.125l365.619 379.75z" />
<glyph unicode="&#xe905;" glyph-name="chevron-thin-up" d="M132.198 261.581c-13.926-13.722-36.301-13.722-50.125 0s-13.875 35.891 0 49.613l404.89 400.896c13.824 13.722 36.198 13.722 50.125 0l404.89-400.896c13.824-13.722 13.824-35.891 0-49.613-13.875-13.722-36.301-13.722-50.074 0l-379.904 365.619-379.802-365.619z" />
<glyph unicode="&#xe906;" glyph-name="dots-three-horizontal" d="M512.051 573.44c-62.208 0-112.691-50.432-112.691-112.64s50.483-112.64 112.691-112.64c62.208 0 112.589 50.432 112.589 112.64s-50.381 112.64-112.589 112.64zM153.651 573.44c-62.208 0-112.691-50.432-112.691-112.64s50.483-112.64 112.691-112.64c62.208 0 112.589 50.483 112.589 112.64s-50.381 112.64-112.589 112.64zM870.451 573.44c-62.208 0-112.691-50.432-112.691-112.64s50.483-112.64 112.691-112.64c62.208 0 112.589 50.432 112.589 112.64s-50.381 112.64-112.589 112.64z" />
<glyph unicode="&#xe907;" glyph-name="globe" d="M512 952.32c-271.104 0-491.571-220.518-491.571-491.52s220.467-491.52 491.571-491.52c271.002 0 491.52 220.518 491.52 491.52s-220.518 491.52-491.52 491.52zM931.226 460.8c0-95.898-32.563-184.32-86.835-254.976-15.36 11.981-31.693 44.39-16.333 77.978 15.514 33.792 19.558 112.026 15.974 142.49-3.379 30.413-19.2 103.68-62.157 104.397-42.906 0.614-72.346 14.797-97.843 65.69-52.89 105.882 99.277 126.208 46.387 184.781-14.797 16.486-91.29-67.686-102.502 44.493-0.717 8.038 6.912 20.070 17.203 32.563 166.093-55.808 286.106-212.838 286.106-397.414zM454.4 875.878c-10.035-19.558-36.506-27.494-52.582-42.189-35.021-31.693-50.074-27.29-68.915-57.702-18.995-30.413-80.23-74.189-80.23-96.205s30.925-47.923 46.387-42.906c15.462 5.12 56.269 4.813 80.23-3.584 24.013-8.499 200.397-16.998 144.179-166.093-17.818-47.411-95.898-39.424-116.685-117.914-3.123-11.52-13.926-60.723-14.592-76.8-1.28-24.883 17.613-118.682-6.4-118.682-24.115 0-88.986 83.917-88.986 99.123s-16.794 68.506-16.794 114.176c0 45.619-77.722 44.902-77.722 105.574 0 54.682 42.138 81.92 32.666 108.186-9.267 26.112-83.302 26.982-114.176 30.208 53.914 139.827 180.736 243.61 333.619 264.806zM380.109 62.976c25.19 13.312 27.75 30.515 50.586 31.386 26.112 1.178 47.36 10.189 76.8 16.691 26.112 5.683 72.858 32.205 113.971 35.584 34.714 2.816 103.168-1.792 121.6-35.277-66.304-44.083-145.818-69.786-231.117-69.786-46.029 0-90.368 7.629-131.84 21.402z" />
<glyph unicode="&#xe908;" glyph-name="info" d="M636.518 972.8c68.608 0 102.912-46.694 102.912-100.198 0-66.816-59.597-128.614-137.165-128.614-64.973 0-102.861 38.4-101.069 101.888 0 53.402 45.107 126.925 135.322 126.925zM425.421-51.2c-54.17 0-93.85 33.382-55.962 180.429l62.157 260.71c10.803 41.677 12.595 58.419 0 58.419-16.23 0-86.477-28.774-128.102-57.19l-27.034 45.056c131.686 111.923 283.187 177.51 348.211 177.51 54.118 0 63.13-65.178 36.096-165.376l-71.219-274.022c-12.595-48.384-7.219-65.075 5.427-65.075 16.23 0 69.478 20.070 121.805 61.798l30.72-41.677c-128.102-130.406-268.032-180.582-322.099-180.582z" />
<glyph unicode="&#xe909;" glyph-name="key" d="M905.779 730.88c-25.754 152.422-164.864 254.31-310.733 227.379-145.92-26.88-269.107-144.179-243.354-296.704 5.478-32.819 20.89-84.173 39.066-121.088l-264.96-395.418c-9.779-14.592-15.309-40.909-12.39-58.419l17.050-100.915c2.97-17.51 19.046-29.286 35.84-26.317l77.619 14.387c16.794 3.021 38.093 17.818 47.309 32.717l104.806 169.523 0.922 1.126 70.963 13.107 122.368 198.605c40.192-7.117 97.894-4.71 131.994 1.587 145.818 26.931 209.254 187.904 183.501 340.429zM776.499 652.698c-40.141-59.904-81.101-17.715-138.394 24.32-57.293 41.882-109.312 67.686-69.222 127.59 40.141 59.904 119.091 74.496 176.486 32.512 57.344-41.933 71.219-124.518 31.13-184.422z" />
<glyph unicode="&#xe90a;" glyph-name="location-pin" d="M512 869.939c-141.414 0-256-114.125-256-255.488 0-244.429 256-563.2 256-563.2s256 318.822 256 563.2c0 141.312-114.586 255.488-256 255.488zM512 473.088c-76.39 0-138.24 61.901-138.24 138.24s61.85 138.24 138.24 138.24c76.288 0 138.189-61.901 138.189-138.24s-61.901-138.24-138.189-138.24z" />
<glyph unicode="&#xe90b;" glyph-name="phone" d="M574.925 397.875c-81.050-80.998-174.95-158.515-212.070-121.395-53.094 53.094-85.862 99.379-203.008 5.222-117.094-94.106-27.136-156.877 24.32-208.282 59.392-59.392 280.781-3.174 499.61 215.603 218.778 218.829 274.842 440.218 215.398 499.61-51.456 51.507-113.92 141.414-208.026 24.32-94.157-117.094-47.923-149.862 5.274-203.008 36.966-37.12-40.499-131.021-121.498-212.070z" />
<glyph unicode="&#xe90c;" glyph-name="price-ribbon" d="M656.64 427.366c6.042 13.21 22.784 25.446 37.222 27.085s27.597 14.848 29.235 29.286c1.741 14.336 13.926 31.13 27.085 37.222 13.21 6.093 21.658 22.682 18.893 36.864-2.97 14.234 3.482 33.946 14.131 43.725 10.701 9.933 13.619 28.314 6.502 41.011-7.117 12.595-7.117 33.331 0 45.926 7.117 12.749 4.198 31.13-6.502 41.011-10.65 9.882-17.050 29.542-14.131 43.725 2.765 14.234-5.683 30.874-18.893 36.966-13.107 6.093-25.344 22.784-27.085 37.222-1.69 14.336-14.848 27.546-29.235 29.286-14.438 1.69-31.181 13.926-37.222 27.034-6.144 13.21-22.733 21.658-36.966 18.739-14.234-2.816-33.894 3.584-43.725 14.234-9.882 10.752-28.314 13.619-40.96 6.502s-33.382-7.117-45.978 0c-12.646 7.219-31.027 4.352-41.011-6.4-9.779-10.65-29.44-17.050-43.725-14.234-14.182 2.867-30.822-5.581-36.864-18.79-6.093-13.107-22.835-25.344-37.274-26.982-14.438-1.792-27.597-14.95-29.286-29.338-1.741-14.387-13.875-31.13-27.085-37.171-13.107-6.093-21.606-22.733-18.739-36.966 2.816-14.182-3.584-33.894-14.234-43.725s-13.619-28.262-6.502-41.011c7.117-12.595 7.117-33.331 0-45.926-7.117-12.698-4.198-31.078 6.502-41.062 10.701-9.728 17.050-29.44 14.234-43.725-2.867-14.182 5.632-30.822 18.739-36.864 13.21-6.093 25.344-22.886 27.034-37.222 1.741-14.438 14.848-27.648 29.286-29.286s31.181-13.926 37.274-27.085c6.042-13.107 22.682-21.555 36.864-18.739 14.234 2.816 33.946-3.533 43.725-14.234 9.933-10.65 28.314-13.619 41.011-6.502 12.595 7.117 33.331 7.117 45.978 0s31.078-4.147 40.96 6.502c9.882 10.752 29.491 17.050 43.725 14.234 14.285-2.867 30.925 5.581 37.018 18.688zM512 491.571c-96.154 0-174.080 77.978-174.080 174.029 0 96.154 77.926 174.131 174.080 174.131s174.080-77.978 174.080-174.131c0-96.051-77.978-174.029-174.080-174.029zM305.92 388.659l-63.642-360.909 160.154 23.757 142.387-77.107 63.386 359.475c-30.566-8.858-62.822-13.875-96.256-13.875-77.261 0-148.429 25.702-206.029 68.659zM714.803 386.202c-15.923-11.571-32.87-21.811-50.688-30.566l-38.298-216.883 172.493 93.594-83.507 153.856z" />
<glyph unicode="&#xe90d;" glyph-name="price-tag" d="M992.666 952.064c-5.683 16.077-23.245 24.576-39.373 18.995s-24.627-23.296-19.046-39.424c47.565-136.704-46.848-238.797-118.835-293.478l-29.082 41.677c-9.779 13.978-31.642 25.6-48.64 25.805l-163.226-0.717c-16.998 0.307-42.24-7.475-56.166-17.306l-480.973-337.254c-23.296-16.384-28.928-48.486-12.646-71.885l218.573-312.73c16.384-23.296 42.547-20.48 65.894-4.198l480.973 337.306c13.824 9.779 29.798 30.874 35.43 47.002l51.098 161.024c5.632 16.077 2.202 40.602-7.578 54.579l-17.715 25.395c96.666 74.086 197.018 205.005 141.312 365.21zM768.87 472.934c-37.222-26.112-88.627-16.998-114.688 20.275-26.163 37.376-17.050 88.781 20.224 114.995 29.594 20.736 67.994 19.251 95.642-0.87-13.926-8.397-23.501-13.312-25.293-14.080-15.411-7.322-22.016-25.805-14.746-41.216 5.325-11.213 16.435-17.818 28.006-17.818 4.403 0 8.909 1.024 13.158 3.021 9.933 4.71 20.582 10.291 31.693 16.896 4.966-30.413-7.117-62.31-33.997-81.203z" />
<glyph unicode="&#xe90e;" glyph-name="star" d="M512 906.24l122.266-344.166h328.294l-267.878-202.138 95.795-354.714-278.477 212.685-278.426-212.685 95.744 354.714-267.93 202.138h328.294l122.317 344.166z" />
<glyph unicode="&#xe90f;" glyph-name="suitcase" d="M921.6 768h-51.2v-768h51.2c56.32 0 102.4 46.080 102.4 102.4v563.2c0 56.32-46.080 102.4-102.4 102.4zM0 665.6v-563.2c0-56.32 46.029-102.4 102.4-102.4h51.2v768h-51.2c-56.371 0-102.4-46.080-102.4-102.4zM691.2 875.213c-34.867 16.179-96.717 46.387-180.173 46.387-83.61 0-143.36-30.208-178.227-46.387v-107.213h-128v-768h614.4v768h-128v107.213zM614.4 768h-204.8v68.403c27.341 11.776 55.194 23.808 101.427 23.808 46.182 0 76.083-11.981 103.373-23.808v-68.403z" />
<glyph unicode="&#xe910;" glyph-name="facebook-with-circle" d="M512 952.32c-271.462 0-491.52-220.058-491.52-491.52s220.058-491.52 491.52-491.52 491.52 220.058 491.52 491.52-220.058 491.52-491.52 491.52zM628.429 612.659h-73.882c-8.755 0-18.483-11.52-18.483-26.829v-53.35h92.416l-13.978-76.083h-78.438v-228.403h-87.194v228.403h-79.104v76.083h79.104v44.749c0 64.205 44.544 116.378 105.677 116.378h73.882v-80.947z" />
<glyph unicode="&#xe911;" glyph-name="instagram-with-circle" d="M665.6 460.8c0-84.838-68.762-153.6-153.6-153.6s-153.6 68.762-153.6 153.6c0 8.755 0.922 17.306 2.509 25.6h-53.709v-204.646c0-14.234 11.52-25.754 25.754-25.754h358.144c14.182 0 25.702 11.52 25.702 25.754v204.646h-53.709c1.587-8.294 2.509-16.845 2.509-25.6zM512 358.4c56.525 0 102.4 45.875 102.4 102.4s-45.875 102.4-102.4 102.4-102.4-45.875-102.4-102.4 45.875-102.4 102.4-102.4zM634.88 568.32h61.389c8.499 0 15.411 6.912 15.411 15.36v61.389c0 8.499-6.912 15.411-15.411 15.411h-61.389c-8.499 0-15.411-6.912-15.411-15.411v-61.389c0.051-8.448 6.963-15.36 15.411-15.36zM512 952.32c-271.462 0-491.52-220.058-491.52-491.52s220.058-491.52 491.52-491.52c271.462 0 491.52 220.058 491.52 491.52s-220.058 491.52-491.52 491.52zM768 261.683c0-31.283-25.6-56.883-56.883-56.883h-398.234c-31.283 0-56.883 25.6-56.883 56.883v398.234c0 31.283 25.6 56.883 56.883 56.883h398.234c31.283 0 56.883-25.6 56.883-56.883v-398.234z" />
<glyph unicode="&#xe912;" glyph-name="pinterest-with-circle" d="M512 952.32c-271.462 0-491.52-220.058-491.52-491.52s220.058-491.52 491.52-491.52 491.52 220.058 491.52 491.52-220.058 491.52-491.52 491.52zM545.638 344.32c-31.539 2.406-44.749 18.022-69.427 32.973-13.568-71.219-30.157-139.52-79.309-175.206-15.206 107.725 22.221 188.518 39.629 274.381-29.645 49.92 3.533 150.323 66.099 125.645 76.954-30.515-66.662-185.6 29.747-205.005 100.659-20.173 141.773 174.694 79.36 237.978-90.214 91.494-262.502 2.099-241.306-128.87 5.12-32 38.246-41.728 13.21-85.914-57.702 12.8-74.957 58.317-72.704 118.989 3.533 99.328 89.242 168.909 175.155 178.483 108.698 12.083 210.688-39.885 224.819-142.182 15.821-115.405-49.101-240.282-165.274-231.27z" />
<glyph unicode="&#xe913;" glyph-name="tumblr-with-circle" d="M512 952.32c-271.462 0-491.52-220.058-491.52-491.52s220.058-491.52 491.52-491.52 491.52 220.058 491.52 491.52-220.058 491.52-491.52 491.52zM643.942 248.781c-20.122-9.626-38.298-16.282-54.579-20.224-16.282-3.789-33.894-5.786-52.787-5.786-21.504 0-40.499 2.816-57.037 8.294s-30.618 13.312-42.291 23.501c-11.674 10.086-19.763 20.992-24.269 32.41-4.506 11.52-6.758 28.109-6.758 49.818v167.014h-52.019v67.277c18.381 6.093 34.304 14.797 47.462 26.214 13.158 11.315 23.757 24.883 31.693 40.806 7.987 15.872 13.466 36.198 16.486 60.672h66.918v-120.32h111.616v-74.65h-111.616v-122.112c0-27.597 1.434-45.312 4.352-53.094 2.867-7.885 8.243-14.080 16.128-18.79 10.445-6.298 22.374-9.472 35.686-9.472 23.859 0 47.514 7.885 71.066 23.603v-75.162z" />
<glyph unicode="&#xe914;" glyph-name="twitter-with-circle" d="M512 952.32c-271.462 0-491.52-220.058-491.52-491.52s220.058-491.52 491.52-491.52 491.52 220.058 491.52 491.52-220.058 491.52-491.52 491.52zM711.936 549.683c0.205-4.198 0.256-8.397 0.256-12.493 0-128-97.331-275.507-275.405-275.507-54.682 0-105.574 15.974-148.378 43.52 7.526-0.922 15.258-1.28 23.091-1.28 45.363 0 87.091 15.411 120.218 41.421-42.342 0.819-78.080 28.774-90.419 67.174 5.888-1.075 11.93-1.69 18.176-1.69 8.806 0 17.408 1.178 25.498 3.379-44.288 8.909-77.67 48.026-77.67 94.925v1.178c13.056-7.219 28.006-11.622 43.878-12.134-26.010 17.408-43.059 47.002-43.059 80.64 0 17.715 4.762 34.406 13.107 48.691 47.77-58.573 119.040-97.075 199.526-101.222-1.69 7.117-2.509 14.49-2.509 22.118 0 53.402 43.315 96.819 96.819 96.819 27.802 0 52.992-11.776 70.656-30.618 22.067 4.403 42.752 12.39 61.44 23.501-7.219-22.579-22.528-41.574-42.547-53.606 19.61 2.406 38.246 7.578 55.603 15.309-12.954-19.405-29.389-36.506-48.282-50.125z" />
<glyph unicode="&#xe915;" glyph-name="family" horiz-adv-x="1100" d="M339.361 605.575c-6.914 5.607-17.063 4.55-22.672-2.366-6.512-8.030-15.146-12.451-24.315-12.451s-17.802 4.423-24.315 12.451c-5.607 6.914-15.76 7.972-22.672 2.366-6.914-5.607-7.974-15.758-2.366-22.672 12.567-15.496 30.556-24.383 49.353-24.383s36.784 8.887 49.353 24.383c5.607 6.914 4.548 17.065-2.366 22.672zM218.706 701.26c-8.902 0-16.119-7.217-16.119-16.119v-18.417c0-8.902 7.217-16.119 16.119-16.119s16.119 7.217 16.119 16.119v18.417c0 8.902-7.217 16.119-16.119 16.119zM366.042 701.26c-8.902 0-16.119-7.217-16.119-16.119v-18.417c0-8.902 7.215-16.119 16.119-16.119 8.902 0 16.119 7.217 16.119 16.119v18.417c0 8.902-7.217 16.119-16.119 16.119zM873.45 513.493c-6.914 5.607-17.065 4.55-22.672-2.366-6.512-8.027-15.148-12.451-24.315-12.451-9.169 0-17.802 4.423-24.315 12.451-5.605 6.914-15.758 7.974-22.672 2.366s-7.972-15.758-2.364-22.672c12.565-15.498 30.554-24.383 49.351-24.383s36.784 8.887 49.351 24.383c5.607 6.914 4.55 17.065-2.364 22.672zM752.795 609.175c-8.902 0-16.119-7.217-16.119-16.119v-18.417c0-8.902 7.217-16.119 16.119-16.119s16.119 7.217 16.119 16.119v18.417c0 8.902-7.217 16.119-16.119 16.119zM900.131 609.175c-8.902 0-16.119-7.217-16.119-16.119v-18.417c0-8.902 7.215-16.119 16.119-16.119 8.902 0 16.119 7.217 16.119 16.119v18.417c0 8.902-7.217 16.119-16.119 16.119zM1055.554 290.411l-126.284 50.514c-0.683 0.273-1.315 0.621-1.956 0.956 87.223 19.846 128.532 53.035 130.365 54.537 4.361 3.574 6.538 9.167 5.741 14.748-0.183 1.277-18.256 129.245-18.256 255.555 0 120.595-98.111 218.706-218.706 218.706s-218.704-98.109-218.704-218.706c0-33.043-1.5-73.457-3.942-111.716l-35.19-17.596-103.293 51.644c-0.297 0.148-0.608 0.256-0.911 0.385 4.913 14.32 8.126 29.421 9.306 45.091 21.606 6.676 37.35 26.838 37.35 50.608 0 16.010-7.153 30.371-18.417 40.090v107.248c0 29.627-14.97 57.349-39.518 74.005-8.318 30.906-36.086 52.616-68.686 52.616h-147.336c-79.974 0-145.038-65.064-145.038-145.038v-88.829c-11.264-9.717-18.417-24.080-18.417-40.090 0-23.771 15.743-43.933 37.35-50.608 4.071-54.116 31.959-101.664 73.152-132.265v-44.554l-133.305-39.991c-30.421-9.128-50.86-36.597-50.86-68.359v-179.895c0-8.902 7.217-16.119 16.119-16.119h2.298v-186.467c0-8.902 7.217-16.119 16.119-16.119s16.119 7.217 16.119 16.119v186.467h59.846v-186.467c0-8.902 7.217-16.119 16.119-16.119s16.119 7.217 16.119 16.119v277.941c0 14.138-4.146 27.829-11.986 39.589l-27.553 41.33c-4.939 7.408-14.948 9.407-22.352 4.473-7.408-4.937-9.409-14.946-4.47-22.354l27.553-41.332c4.299-6.448 6.572-13.953 6.572-21.705v-59.236h-78.265v163.775c0 17.415 11.206 32.475 27.889 37.481l55.337 16.601c19.27-80.687 92.454-139.594 176.909-139.594 30.341 0 59.807 7.482 86.194 21.718 9.644-13.156 25.198-21.718 42.723-21.718h2.298v-2.298c0-54.039 29.728-101.236 73.668-126.187v-26.292c0-0.989-0.632-1.866-1.571-2.179l-60.13-20.044c-29.189-9.73-48.801-36.939-48.801-67.708v-52.261c0-8.902 7.217-16.119 16.119-16.119s16.119 7.217 16.119 16.119v52.261c0 16.869 10.753 31.79 26.756 37.122l17.682 5.895c23.392-34.887 62.735-56.149 105.193-56.149 42.504 0 81.809 21.25 105.197 56.147l17.678-5.893c16.003-5.334 26.756-20.252 26.756-37.122v-52.261c0-8.902 7.217-16.119 16.119-16.119s16.119 7.217 16.119 16.119v52.261c0 30.769-19.612 57.978-48.801 67.706l-60.13 20.044c-0.939 0.314-1.571 1.189-1.571 2.179v26.292c32.899 18.681 57.8 49.837 68.245 87.004 30.461-31.873 73.006-50.606 118.22-50.606 71.381 0 134.012 46.142 155.587 113.326l61.531-24.611c14.944-5.977 24.598-20.24 24.598-36.331v-75.394h-59.846v20.715c0 8.902-7.217 16.119-16.119 16.119s-16.119-7.217-16.119-16.119v-202.587c0-8.902 7.217-16.119 16.119-16.119s16.119 7.217 16.119 16.119v149.633h41.429v-149.633c0-8.902 7.217-16.119 16.119-16.119s16.119 7.217 16.119 16.119v149.633h2.298c4.275 0 8.373 1.698 11.397 4.72 3.024 3.024 4.722 7.123 4.722 11.4v91.513c0.006 29.355-17.602 55.365-44.857 66.266zM639.996 666.724c0 102.818 83.649 186.467 186.467 186.467s186.465-83.649 186.465-186.467c0-108.243 13.035-217.664 17.271-250.343-14.445-9.45-51.429-30.264-113.949-43.941v25.651c8.563 4.853 16.76 10.392 24.467 16.62 31.719 25.638 54.133 61.546 63.109 101.105 2.992 13.181 4.509 26.775 4.509 40.404 0 91.109-65.89 104.189-129.611 116.84-40.546 8.049-82.471 16.373-115.858 43.082-4.838 3.871-11.466 4.625-17.052 1.941s-9.136-8.331-9.136-14.529c0-0.428-0.703-42.841-61.458-58.030-8.638-2.16-13.888-10.912-11.728-19.55 2.158-8.638 10.912-13.884 19.547-11.728 50.851 12.713 71.596 41.24 80.055 62.672 34.955-20.715 74.113-28.486 109.352-35.482 68.108-13.521 103.65-23.453 103.65-85.218 0-11.232-1.249-22.425-3.71-33.27-7.383-32.527-25.825-62.062-51.937-83.168-26.866-21.716-59.367-33.193-93.987-33.193-31.56 0-61.595 9.68-87.086 27.973-9.339 25.488-24.338 48.807-44.131 68.022v72.054c0 5.588-2.893 10.776-7.645 13.712s-10.684 3.205-15.683 0.705l-34.803-17.4c1.909 33.569 2.88 65.486 2.88 95.072zM663.008 548.558v-58.337l-58.339 29.168 58.339 29.17zM474.244 548.558l58.337-29.17-58.337-29.168v58.337zM386.754 372.054v-15.309c-11.541-9.966-18.417-24.551-18.417-39.94-22.958-13.564-49.040-20.717-75.965-20.717-70.117 0-130.78 49.343-145.956 116.64l39.824 11.948c9.824-49.622 53.671-87.159 106.134-87.159 41.659 0 77.87 23.678 95.945 58.271-1.034-7.828-1.565-15.754-1.565-23.734zM216.408 445.748v37.339c23.13-10.682 48.861-16.65 75.965-16.65 27.102 0 52.835 5.971 75.965 16.648v-37.36c0-41.887-34.076-75.965-75.965-75.965-41.818 0-75.847 33.967-75.961 75.759 0 0.077-0.004 0.155-0.004 0.23zM292.374 498.676c-82.51 0-149.633 67.123-149.633 149.631 0 8.902-7.217 16.119-16.119 16.119-11.421 0-20.715 9.293-20.715 20.715s9.291 20.715 20.715 20.715h36.834c6.938 0 13.098 4.438 15.292 11.021l14.795 44.386c37.042 0.836 151.875 6.044 216.539 38.377 7.963 3.983 11.191 13.663 7.209 21.626-3.98 7.963-13.661 11.191-21.626 7.209-69.38-34.689-212.361-35.132-213.797-35.132-6.938-0.002-13.098-4.44-15.29-11.024l-14.742-44.227h-25.215c-0.769 0-1.535-0.026-2.298-0.058v76.026c0 62.197 50.602 112.799 112.799 112.799h147.336c19.249 0 35.42-13.873 38.457-32.985 0.772-4.857 3.718-9.096 8.002-11.511 18.2-10.265 29.507-29.378 29.507-49.884v-94.44c-0.763 0.034-1.526 0.058-2.298 0.058h-18.417c-8.902 0-16.119-7.217-16.119-16.119s7.217-16.119 16.119-16.119h18.417c11.421 0 20.715-9.291 20.715-20.715s-9.291-20.715-20.715-20.715c-8.902 0-16.119-7.217-16.119-16.119 0-82.508-67.123-149.633-149.633-149.633zM400.576 445.72v56.547c16.036 11.913 30.051 26.384 41.429 42.83v-42.514c-18.052-17.525-32.123-38.461-41.543-61.346 0.062 1.489 0.114 2.981 0.114 4.483zM641.655 72.883c-17.746-21.68-44.406-34.631-73.029-34.631-28.589 0-55.266 12.96-73.019 34.633l10.273 3.424c14.125 4.707 23.616 17.875 23.616 32.763v12.848c12.457-3.497 25.572-5.408 39.131-5.408s26.674 1.911 39.131 5.408v-12.848c-0.002-14.886 9.487-28.054 23.614-32.761l10.282-3.428zM697.547 296.089c-8.902 0-16.119-7.217-16.119-16.119v-16.027c0-0.14-0.002-0.279 0-0.419v-1.971c-0.002-62.197-50.604-112.799-112.801-112.799s-112.797 50.602-112.797 112.799v18.417c0 8.902-7.217 16.119-16.119 16.119h-18.417c-11.421 0-20.715 9.291-20.715 20.715 0 7.35 3.89 14.002 10.405 17.794 1.455 0.847 2.721 1.919 3.817 3.131 39.847 1.154 169.015 8.653 253.909 57.164 7.729 4.417 10.415 14.262 5.999 21.993s-14.267 10.415-21.993 5.999c-74.368-42.495-191.228-51.004-233.718-52.704v1.874c0 29.98 9.078 59.014 25.529 83.492 1.287-2.040 3.009-3.811 5.128-5.12 2.59-1.599 5.528-2.407 8.475-2.407 2.463 0 4.933 0.565 7.209 1.702l103.293 51.647 103.293-51.647c2.276-1.137 4.746-1.702 7.209-1.702 2.949 0 5.887 0.808 8.475 2.407 2.117 1.309 3.839 3.082 5.126 5.12 16.45-24.478 25.529-53.512 25.529-83.492v-23.526c0-5.739 3.050-11.045 8.012-13.931 6.517-3.793 10.407-10.443 10.407-17.794 0-11.421-9.293-20.715-20.715-20.715h-18.417zM826.463 204.004c-44.627 0-86.030 22.72-110.132 59.855 29.028 0.2 52.584 23.87 52.584 52.943 0 15.389-6.875 29.976-18.417 39.942v15.309c0 6.489-0.35 12.941-1.036 19.333 23.902-11.206 49.998-17.033 77.001-17.033 19.655 0 39.093 3.256 57.548 9.412v-23.605c0-21.778 13.065-41.079 33.285-49.166l34.76-13.904c-16.659-55.081-67.532-93.084-125.594-93.084zM615.615 237.238c-6.914 5.607-17.065 4.55-22.672-2.366-6.514-8.030-15.148-12.451-24.315-12.451s-17.802 4.421-24.315 12.451c-5.607 6.914-15.76 7.974-22.672 2.366-6.914-5.607-7.974-15.758-2.366-22.672 12.569-15.494 30.556-24.383 49.353-24.383s36.784 8.887 49.353 24.381c5.605 6.914 4.546 17.067-2.366 22.675zM529.791 298.314c0-8.903-7.217-16.119-16.119-16.119s-16.119 7.217-16.119 16.119c0 8.903 7.217 16.119 16.119 16.119s16.119-7.217 16.119-16.119zM639.403 298.314c0-8.903-7.217-16.119-16.119-16.119s-16.119 7.217-16.119 16.119c0 8.903 7.217 16.119 16.119 16.119s16.119-7.217 16.119-16.119z" />
<glyph unicode="&#xe916;" glyph-name="date_range" d="M810 84.667v470h-596v-470h596zM810 768.667c46 0 86-40 86-86v-598c0-46-40-84-86-84h-596c-48 0-86 38-86 84v598c0 46 38 86 86 86h42v84h86v-84h340v84h86v-84h42zM726 468.667v-84h-86v84h86zM554 468.667v-84h-84v84h84zM384 468.667v-84h-86v84h86z" />
<glyph unicode="&#xe917;" glyph-name="garden" horiz-adv-x="1311" d="M1273.568-15.852h-275.394v130.588c60.138 8.089 113.437 45.647 144.43 102.588 41.177 9.412 78.584 33.252 106.256 67.944 30.040 37.662 46.585 85.795 46.585 135.535 0 75.664-38.744 145.696-99.703 182.072-6.351 126.178-103.619 226.787-222.082 226.787-37.289 0-74.184-10.149-106.695-29.349-10.116-5.973-13.474-19.014-7.501-29.127 5.976-10.118 19.019-13.474 29.13-7.501 25.965 15.335 55.38 23.439 85.067 23.439 98.997 0 179.687-88.382 179.874-197.019 0.015-8.005 4.521-15.325 11.664-18.941 53.282-26.966 87.707-85.984 87.707-150.358 0-81.244-55.019-151.586-127.983-163.621-6.833-1.13-12.688-5.509-15.696-11.75-22.819-47.321-64.048-79.31-111.052-87.639v188.209l104.678 96.259c8.646 7.952 9.211 21.407 1.258 30.052-7.955 8.646-21.407 9.213-30.052 1.258l-75.884-69.78v141.985c0 11.747-9.523 21.27-21.27 21.27s-21.27-9.523-21.27-21.27v-257.434l-75.884 69.78c-8.646 7.955-22.103 7.388-30.052-1.258-7.952-8.646-7.388-22.1 1.258-30.052l104.681-96.259v-73.756c-50.156 6.462-94.388 39.649-118.122 89.865-2.837 6.003-8.316 10.338-14.808 11.714-70.579 14.995-121.803 83.302-121.803 162.425 0 62.389 31.462 118.856 82.107 147.355 6.778 3.815 10.933 11.024 10.837 18.797-0.005 0.59-0.025 1.175-0.045 1.757-0.013 0.338-0.025 0.673-0.025 1.009 0 44.308 13.076 86.174 37.813 121.065 6.795 9.584 4.533 22.861-5.048 29.652-9.584 6.798-22.861 4.531-29.652-5.048-28.182-39.747-43.824-86.834-45.499-136.69-57.684-37.617-93.024-104.618-93.024-177.899 0-95.319 60.513-178.348 145.328-201.565 31.923-60.123 88.387-99.030 151.947-105.258v-129.831h-13.472c-3.134 55.665-41.184 104.091-94.171 120.442-16.626 35.373-48.92 61.020-86.895 69.336-12.451 56.593-63.395 98.793-122.761 98.793-45.778 0-87.288-24.604-109.416-63.766-43.577-1.657-82.757-24.937-105.263-61.003-14.026 38.587-49.956 66.683-92.023 69.704v55.922c57.42 7.983 108.263 43.897 137.971 98.228 39.462 9.117 75.301 32.012 101.834 65.274 28.89 36.215 44.8 82.5 44.8 130.326 0 72.586-37.087 139.788-95.48 174.843-6.336 121.055-99.756 217.498-213.506 217.498-43.633 0-85.601-14.072-121.372-40.7-9.42-7.012-11.374-20.34-4.362-29.763 7.012-9.42 20.338-11.374 29.763-4.362 28.371 21.124 61.557 32.286 95.972 32.286 94.277 0 171.124-84.209 171.303-187.718 0.015-8.005 4.521-15.325 11.664-18.941 50.71-25.665 83.473-81.854 83.473-143.144 0-77.344-52.349-144.304-121.771-155.754-6.83-1.13-12.688-5.509-15.696-11.75-21.545-44.679-60.322-75.006-104.597-83.226v178.716l99.928 91.887c8.646 7.952 9.208 21.407 1.258 30.052-7.95 8.648-21.407 9.213-30.052 1.258l-71.133-65.41v133.871c0 11.747-9.523 21.27-21.27 21.27s-21.27-9.523-21.27-21.27v-244.401l-71.131 65.41c-8.648 7.955-22.103 7.388-30.052-1.258-7.952-8.646-7.388-22.103 1.258-30.052l99.923-91.887v-69.182c-47.291 6.47-88.935 37.939-111.362 85.387-2.837 6.003-8.316 10.338-14.808 11.714-67.152 14.274-115.893 79.298-115.893 154.624 0 59.406 29.942 113.163 78.143 140.288 6.772 3.812 10.928 11.008 10.837 18.779-0.005 0.575-0.023 1.15-0.043 1.722-0.008 0.31-0.023 0.618-0.023 0.933 0 26.308 4.849 51.749 14.41 75.614 2.844 7.090 6.119 14.054 9.743 20.706 5.618 10.318 1.81 23.232-8.507 28.85-10.318 5.623-23.235 1.813-28.85-8.505-4.415-8.109-8.409-16.596-11.868-25.229-10.479-26.149-16.286-53.804-17.302-82.336-55.246-36.225-89.076-100.52-89.076-170.822 0-91.519 58.037-171.268 139.423-193.744 30.605-57.374 84.484-94.6 145.179-100.83v-60.839c-23.277-8.134-43.199-24.215-56.015-45.816-51.653-2.937-93.39-41.086-101.478-91.398-38.096-16.919-66.418-50.473-76.847-90.624h-28.991c-11.747 0-21.27-9.523-21.27-21.27s9.523-21.27 21.27-21.27h1247.806c11.747 0 21.27 9.523 21.27 21.27s-9.526 21.265-21.27 21.265zM99.364-15.852c10.146 25.857 31.49 46.454 58.68 55.261 8.555 2.771 14.443 10.62 14.707 19.606 1.072 36.336 30.393 64.8 66.754 64.8 1.457 0 3.051-0.068 5.010-0.212 9.112-0.658 17.637 4.546 21.175 12.973 9.914 23.585 32.846 38.827 58.423 38.827 32.844 0 60.569-25.622 63.121-58.332 0.817-10.441 9.11-18.736 19.553-19.553 5.799-0.451 11.407-1.725 16.717-3.666 0.023-0.008 0.043-0.020 0.066-0.028 0.986-0.363 1.957-0.754 2.92-1.162 0.207-0.088 0.416-0.176 0.623-0.267 0.9-0.391 1.79-0.802 2.665-1.233 0.298-0.149 0.59-0.303 0.885-0.454 1.213-0.62 2.4-1.281 3.565-1.974 0.635-0.381 1.276-0.749 1.896-1.152 0.471-0.303 0.925-0.628 1.384-0.938 0.698-0.477 1.392-0.961 2.073-1.465 0.386-0.287 0.767-0.575 1.142-0.87 0.822-0.64 1.634-1.301 2.423-1.984 0.219-0.187 0.439-0.366 0.656-0.555 2.095-1.856 4.070-3.855 5.908-5.978 0.169-0.197 0.335-0.393 0.502-0.593 0.774-0.915 1.52-1.856 2.244-2.816 0.139-0.184 0.282-0.366 0.419-0.552 1.652-2.249 3.157-4.619 4.508-7.093 0.179-0.328 0.348-0.663 0.524-0.996 0.479-0.915 0.935-1.848 1.372-2.794 0.174-0.373 0.348-0.746 0.514-1.122 0.537-1.225 1.046-2.468 1.508-3.732 0.018-0.045 0.033-0.086 0.050-0.131 2.494-6.888 8.358-12.009 15.519-13.552 1.901-0.408 3.764-0.908 5.597-1.47 0.598-0.184 1.177-0.408 1.77-0.608 1.22-0.408 2.436-0.824 3.623-1.299 0.686-0.275 1.354-0.585 2.027-0.88 1.062-0.464 2.118-0.935 3.152-1.45 0.696-0.345 1.372-0.719 2.052-1.087 0.978-0.527 1.947-1.072 2.892-1.644 0.673-0.406 1.336-0.827 1.994-1.256 0.918-0.598 1.823-1.22 2.71-1.861 0.633-0.456 1.258-0.913 1.873-1.389 0.88-0.681 1.732-1.389 2.577-2.108 0.572-0.487 1.152-0.971 1.71-1.475 0.865-0.787 1.692-1.606 2.516-2.431 0.487-0.487 0.991-0.963 1.462-1.467 0.928-0.986 1.805-2.015 2.675-3.048 0.323-0.386 0.666-0.749 0.981-1.14 1.16-1.447 2.267-2.935 3.311-4.47 0.219-0.32 0.408-0.663 0.62-0.986 0.804-1.225 1.588-2.463 2.317-3.737 0.328-0.577 0.623-1.177 0.935-1.765 0.565-1.054 1.119-2.11 1.631-3.192 0.318-0.673 0.6-1.362 0.895-2.042 0.449-1.036 0.882-2.073 1.281-3.132 0.272-0.726 0.522-1.46 0.772-2.196 0.356-1.049 0.688-2.105 0.996-3.174 0.217-0.756 0.419-1.518 0.613-2.282 0.27-1.084 0.507-2.176 0.726-3.275 0.154-0.767 0.303-1.533 0.431-2.31 0.061-0.361 0.091-0.726 0.144-1.089h-431.791zM574.043-15.854v0.003c-0.018 0.202-0.061 0.401-0.076 0.6-0.245 2.539-0.56 5.063-0.976 7.557-0.025 0.146-0.058 0.292-0.083 0.439-0.434 2.544-0.951 5.063-1.556 7.554-0.025 0.108-0.045 0.217-0.073 0.32-0.608 2.468-1.311 4.902-2.078 7.307-0.083 0.257-0.159 0.522-0.245 0.779-0.756 2.315-1.599 4.594-2.504 6.848-0.131 0.325-0.257 0.653-0.391 0.976-0.908 2.206-1.889 4.375-2.932 6.51-0.164 0.338-0.328 0.673-0.497 1.009-1.064 2.123-2.189 4.211-3.379 6.258-0.182 0.31-0.363 0.615-0.547 0.925-1.225 2.065-2.509 4.092-3.863 6.072-0.164 0.242-0.335 0.477-0.502 0.714-1.412 2.032-2.877 4.027-4.415 5.961-0.096 0.121-0.199 0.237-0.295 0.361-1.609 2.007-3.278 3.964-5.020 5.857-0.020 0.020-0.038 0.043-0.055 0.063-1.725 1.871-3.522 3.679-5.371 5.434-0.161 0.154-0.318 0.313-0.479 0.464-1.778 1.667-3.618 3.27-5.504 4.823-0.252 0.207-0.502 0.419-0.756 0.628-1.856 1.5-3.762 2.94-5.716 4.324-0.303 0.214-0.605 0.429-0.908 0.64-1.952 1.357-3.951 2.653-5.993 3.885-0.32 0.192-0.643 0.383-0.963 0.572-2.070 1.223-4.178 2.385-6.329 3.477-0.295 0.151-0.595 0.29-0.893 0.436-2.219 1.097-4.473 2.138-6.775 3.091-0.204 0.086-0.411 0.159-0.615 0.242-2.413 0.981-4.861 1.896-7.357 2.71-0.008 0.003-0.018 0.008-0.028 0.013-0.108 0.219-0.232 0.424-0.34 0.64-0.86 1.722-1.76 3.414-2.708 5.078-0.484 0.85-1.001 1.679-1.505 2.516-0.613 1.006-1.23 2.010-1.873 2.995-0.618 0.951-1.253 1.883-1.904 2.811-0.565 0.804-1.145 1.596-1.73 2.385-0.736 0.996-1.475 1.987-2.247 2.955-0.454 0.567-0.93 1.112-1.394 1.667-1.793 2.156-3.666 4.236-5.625 6.243-0.338 0.345-0.661 0.703-1.001 1.044-0.973 0.968-1.979 1.896-2.988 2.826-0.582 0.537-1.162 1.072-1.757 1.596-0.963 0.847-1.941 1.679-2.94 2.496-0.726 0.595-1.465 1.167-2.206 1.745-0.925 0.714-1.843 1.435-2.794 2.12-1.336 0.968-2.703 1.891-4.085 2.796-0.368 0.242-0.719 0.509-1.092 0.746 15.502 26.187 43.877 42.836 75.228 42.836 1.919 0 4.001-0.088 6.553-0.275 9.1-0.678 17.635 4.549 21.172 12.973 13.013 30.968 43.123 50.977 76.706 50.977 43.123 0 79.525-33.645 82.873-76.595 0.814-10.441 9.11-18.736 19.553-19.551 32.443-2.529 60.566-23.948 71.65-54.57 2.494-6.888 8.358-12.009 15.519-13.552 39.243-8.457 68.355-42.203 71.625-81.764l-325.519 0.008z" />
<glyph unicode="&#xe918;" glyph-name="reception" horiz-adv-x="1038" d="M1017.6 38.4h-51.2v324.267c-0.006 9.425-7.654 17.060-17.079 17.054-5.562-0.004-10.773-2.718-13.965-7.275l-238.933-341.333c-5.402-7.725-3.518-18.366 4.207-23.765 2.865-2.003 6.274-3.078 9.771-3.081h221.867v-51.2c0-9.425 7.642-17.067 17.067-17.067s17.067 7.642 17.067 17.067v51.2h51.2c9.425 0 17.067 7.642 17.067 17.067s-7.642 17.067-17.067 17.067zM932.267 38.4h-189.099l189.099 270.131v-270.131zM710.4-29.867h-202.052l187.853 221.201c0.427 0.508 0.826 1.037 1.195 1.587 35.341 52.305 23.569 123.121-26.795 161.178-61.237 44-146.549 30.025-190.547-31.213-16.685-23.221-25.658-51.093-25.653-79.686 0-9.425 7.642-17.067 17.067-17.067s17.067 7.642 17.067 17.067c-0.006 56.555 45.837 102.404 102.389 102.411 21.436 0.002 42.332-6.722 59.744-19.228 35.279-27.031 43.494-76.815 18.773-113.749l-210.978-248.525c-6.099-7.187-5.216-17.956 1.971-24.055 3.083-2.615 6.991-4.051 11.034-4.053h238.933c9.425 0 17.067 7.642 17.067 17.067s-7.642 17.067-17.067 17.067zM471.842 55.142c0.356 9.419-6.993 17.342-16.412 17.698-0.002 0-0.004 0-0.006 0-222.656 8.265-401.363 186.652-410.027 409.293h67.669c9.425 0 17.067 7.642 17.067 17.067s-7.642 17.067-17.067 17.067h-67.669c8.54 222.249 186.752 400.454 409.003 408.986v-50.586c0-9.425 7.642-17.067 17.067-17.067s17.067 7.642 17.067 17.067v50.586c219.209-8.478 396.13-182.059 408.781-401.067l-66.56 66.56c-6.78 6.549-17.583 6.362-24.132-0.418-6.387-6.613-6.387-17.099 0-23.714l95.266-95.266c1.794-2.172 4.107-3.855 6.724-4.898 0.668-0.201 1.346-0.367 2.031-0.495 1.171-0.422 2.383-0.715 3.618-0.87 0.171 0 0.324 0 0.495 0s0.324 0 0.478 0c1.299 0.098 2.583 0.35 3.823 0.751 0.702 0.085 1.397 0.215 2.082 0.393 2.31 0.821 4.414 2.138 6.161 3.857l96.563 96.529c6.547 6.78 6.362 17.583-0.418 24.132-6.613 6.387-17.099 6.387-23.714 0l-68.215-68.164c-12.192 244.629-213.905 436.819-458.837 437.18-0.427 0.017-0.785 0.239-1.212 0.239s-0.785-0.222-1.212-0.239c-253.547-0.348-459.002-205.803-459.349-459.349 0-0.427-0.239-0.785-0.239-1.212s0.222-0.785 0.239-1.212c0.425-247.29 196.137-450.069 443.255-459.264h0.631c9.171 0.002 16.702 7.253 17.050 16.418zM700.757 728.491c-6.665 6.662-17.468 6.662-24.132 0l-183.398-183.381c-13.856 6.178-29.683 6.178-43.537 0l-86.835 86.835c-6.78 6.547-17.585 6.359-24.132-0.42-6.387-6.613-6.387-17.099 0-23.712l86.665-86.665c-12.169-25.472-1.382-55.987 24.092-68.154 19.552-9.34 42.869-5.335 58.187 9.99 15.401 15.27 19.366 38.652 9.865 58.146l183.228 183.228c6.662 6.665 6.662 17.468 0 24.132zM483.537 487.138c-0.002-0.002-0.002-0.002-0.004-0.004-6.75-6.453-17.382-6.453-24.132 0-6.667 6.665-6.667 17.47-0.004 24.137 6.665 6.667 17.47 6.667 24.137 0.004 6.667-6.665 6.667-17.472 0.004-24.137z" />
<glyph unicode="&#xe919;" glyph-name="seminar" horiz-adv-x="1038" d="M519.111 960c-56.555 0-102.4-45.845-102.4-102.4s45.845-102.4 102.4-102.4c56.531 0.055 102.345 45.869 102.4 102.4 0 56.555-45.845 102.4-102.4 102.4zM519.111 789.333c-37.702 0-68.267 30.564-68.267 68.267s30.564 68.267 68.267 68.267c37.702 0 68.267-30.564 68.267-68.267s-30.564-68.267-68.267-68.267zM587.378 738.133h-4.028l-3.601-1.792c-38.189-19.014-83.087-19.014-121.276 0l-3.601 1.792h-4.028c-47.104-0.055-85.278-38.229-85.333-85.333v-102.4c0-28.277 22.923-51.2 51.2-51.2h204.8c28.277 0 51.2 22.923 51.2 51.2v102.4c-0.055 47.104-38.229 85.278-85.333 85.333zM638.578 550.4c0-9.425-7.642-17.067-17.067-17.067h-204.8c-9.425 0-17.067 7.642-17.067 17.067v102.4c0.004 26.863 20.768 49.156 47.565 51.063 45.6-21.163 98.206-21.163 143.804 0 26.795-1.907 47.561-24.201 47.565-51.063v-102.4zM877.511 396.8c-56.555 0-102.4-45.845-102.4-102.4s45.845-102.4 102.4-102.4c56.555 0 102.4 45.845 102.4 102.4-0.055 56.531-45.869 102.345-102.4 102.4zM877.511 226.133c-37.702 0-68.267 30.564-68.267 68.267s30.564 68.267 68.267 68.267c37.702 0 68.267-30.564 68.267-68.267s-30.564-68.267-68.267-68.267zM945.778 174.933h-4.028l-3.601-1.707c-38.189-19.012-83.087-19.012-121.276 0l-3.601 1.707h-4.028c-47.104-0.055-85.278-38.229-85.333-85.333v-102.4c0-28.277 22.923-51.2 51.2-51.2h204.8c28.277 0 51.2 22.923 51.2 51.2v102.4c-0.055 47.104-38.229 85.278-85.333 85.333zM996.978-12.8c0-9.425-7.642-17.067-17.067-17.067h-204.8c-9.425 0-17.067 7.642-17.067 17.067v102.4c0.004 26.863 20.768 49.156 47.565 51.063 45.6-21.163 98.204-21.163 143.804 0 26.797-1.907 47.561-24.201 47.565-51.063v-102.4zM160.711 396.8c-56.555 0-102.4-45.845-102.4-102.4s45.845-102.4 102.4-102.4c56.555 0 102.4 45.845 102.4 102.4-0.055 56.531-45.869 102.345-102.4 102.4zM160.711 226.133c-37.702 0-68.267 30.564-68.267 68.267s30.564 68.267 68.267 68.267c37.702 0 68.267-30.564 68.267-68.267s-30.564-68.267-68.267-68.267zM228.978 174.933h-4.028l-3.601-1.707c-38.189-19.012-83.087-19.012-121.276 0l-3.601 1.707h-4.028c-47.104-0.055-85.278-38.229-85.333-85.333v-102.4c0-28.277 22.923-51.2 51.2-51.2h204.8c28.277 0 51.2 22.923 51.2 51.2v102.4c-0.055 47.104-38.229 85.278-85.333 85.333zM280.178-12.8c0-9.425-7.642-17.067-17.067-17.067h-204.8c-9.425 0-17.067 7.642-17.067 17.067v102.4c0.004 26.863 20.768 49.156 47.565 51.063 45.6-21.163 98.204-21.163 143.804 0 26.797-1.907 47.561-24.201 47.565-51.063v-102.4zM688.438 93.278c-0.009 0.019-0.017 0.038-0.026 0.060-3.695 8.672-13.719 12.706-22.389 9.011 0 0 0 0 0 0-77.067-32.299-162.656-38.191-243.422-16.759l15.974 4.693c9.050 2.65 14.238 12.13 11.588 21.18s-12.13 14.238-21.18 11.588l-68.267-20.019c-0.256 0-0.444-0.29-0.683-0.375-1.581-0.589-3.066-1.412-4.403-2.441-0.593-0.32-1.163-0.678-1.707-1.075-1.801-1.606-3.228-3.586-4.181-5.803-0.926-2.231-1.367-4.634-1.297-7.049 0.416-2.31 0.986-4.591 1.707-6.827 0.102-0.239 0-0.512 0.188-0.751l34.133-65.314c4.365-8.361 14.679-11.601 23.040-7.236s11.601 14.679 7.236 23.040l-13.892 26.556c91.763-27.584 190.283-22.223 278.511 15.155 8.678 3.671 12.74 13.685 9.069 22.366zM974.911 511.266c-6.665 6.662-17.468 6.662-24.132 0l-24.149-24.149c-14.131 149.483-109.037 279.202-247.228 337.92-8.672 3.695-18.697-0.339-22.391-9.011s0.339-18.697 9.011-22.391c123.968-52.687 210.142-167.827 225.741-301.619l-19.251 19.251c-6.78 6.549-17.583 6.362-24.132-0.418-6.387-6.613-6.387-17.099 0-23.714l51.2-51.2c6.656-6.673 17.463-6.688 24.137-0.030 0.011 0.011 0.021 0.021 0.030 0.030l51.2 51.2c6.654 6.673 6.639 17.476-0.034 24.132zM382.083 812.22c-0.055 0.996-0.203 1.984-0.444 2.953 0 0.154-0.188 0.256-0.256 0.427s0 0.29 0 0.427c-0.465 0.83-1.003 1.619-1.604 2.355-0.553 1.001-1.205 1.943-1.946 2.816-1.009 0.894-2.127 1.655-3.328 2.27-0.599 0.51-1.239 0.973-1.911 1.382l-68.267 31.181c-8.719 3.58-18.69-0.587-22.27-9.306-3.386-8.245 0.145-17.709 8.105-21.722l35.345-16.162c-133.062-71.213-216.092-209.92-215.996-360.841 0-9.425 7.642-17.067 17.067-17.067s17.067 7.642 17.067 17.067c-0.085 132.892 70.189 255.898 184.713 323.311l-12.339-25.788c-4.068-8.484-0.503-18.66 7.97-22.75 2.302-1.124 4.828-1.709 7.39-1.707 6.554 0.009 12.523 3.77 15.36 9.677l34.133 71.219c0 0.171 0 0.358 0.137 0.529 0.444 1.167 0.753 2.381 0.922 3.618 0.292 0.919 0.51 1.86 0.649 2.816-0.058 1.111-0.222 2.214-0.495 3.294z" />
<glyph unicode="&#xe91a;" glyph-name="wine" d="M749.568 536.235c0 108.8-38.656 238.592-40.277 244.053-5.461 18.048-22.059 30.379-40.875 30.379h-312.832c-18.816 0-35.413-12.331-40.875-30.379-1.621-5.461-40.277-135.253-40.277-244.053 0-116.693 84.651-213.803 195.712-233.685-0.128-1.28-0.811-2.517-0.811-3.883v-170.667h-42.667c-23.595 0-42.667-19.072-42.667-42.667s19.072-42.667 42.667-42.667h170.667c23.595 0 42.667 19.072 42.667 42.667s-19.072 42.667-42.667 42.667h-42.667v170.667c0 1.365-0.683 2.603-0.811 3.925 111.061 19.883 195.712 116.949 195.712 233.643zM512 384c-75.648 0-138.069 55.595-149.803 128h299.563c-11.691-72.405-74.112-128-149.76-128zM360.32 554.667c2.645 62.635 18.005 131.968 27.861 170.667h247.595c9.856-38.699 25.216-108.032 27.861-170.667h-303.317z" />
<glyph unicode="&#xe91b;" glyph-name="barbell" d="M928.725 554.667c-23.467 0-32.725-38.4-32.725-85.333v-85.333c0-46.933 9.259-85.333 32.725-85.333s32.725 38.4 32.725 85.333h62.549v85.333h-62.592c0 46.933-9.259 85.333-32.683 85.333zM768 682.667c-42.667 0-42.667-38.4-42.667-85.333v-128h-426.667v128c0 46.933 0 85.333-42.667 85.333-46.933 0-85.333-38.4-85.333-85.333v-341.333c0-46.933 38.4-85.333 85.333-85.333 42.667 0 42.667 38.4 42.667 85.333v128h426.667v-128c0-46.933 0-85.333 42.667-85.333 46.933 0 85.333 38.4 85.333 85.333v341.333c0 46.933-38.4 85.333-85.333 85.333zM95.275 554.667c23.467 0 32.725-38.4 32.725-85.333v-85.333c0-46.933-9.259-85.333-32.725-85.333s-32.725 38.4-32.725 85.333h-62.549v85.333h62.592c0 46.933 9.259 85.333 32.683 85.333z" />
<glyph unicode="&#xe91c;" glyph-name="drink" d="M849.984 703.328l-335.872-294.816v-382.048l186.912-90.464h-438.048l186.944 90.432v382.080l-339.904 294.816h518.464l103.776 179.808 27.904-16.096-94.496-163.68h184.32zM771.552 673.12l-123.616-0.48-38.080-65.984h87.84l73.856 66.464zM514.112 477.792c18.912 0 34.208 15.328 34.208 34.24s-15.328 34.24-34.208 34.24-34.24-15.328-34.24-34.24c0-18.944 15.36-34.24 34.24-34.24zM188.48 673.12l74.464-66.464h309.728l38.016 65.824-422.208 0.64z" />
<glyph unicode="&#xe91d;" glyph-name="position" d="M528 177.696v31.872c107.264-3.168 191.776-37.568 191.776-79.584 0-44.128-92.992-81.92-207.744-81.92s-207.744 37.792-207.744 81.92c0 42.016 84.512 76.448 191.744 79.584v-31.872c-89.568-2.208-159.776-22.72-159.776-47.712 0-26.464 78.688-51.936 175.776-51.936 97.056 0 175.744 25.472 175.744 51.936-0.032 24.992-70.208 45.472-159.776 47.712zM336.512 672.16c0 97.056 80.672 175.776 177.792 175.776 97.088 0 175.776-78.72 175.776-175.776 0-83.424-58.176-153.152-136.192-171.136l-41.888-423.008-42.016 424.192c-75.584 19.68-133.472 88.192-133.472 169.952zM512 719.232c0 26.496-21.472 47.936-47.936 47.936-26.496 0-47.968-21.44-47.968-47.936 0-26.464 21.472-47.936 47.968-47.936s47.936 21.44 47.936 47.936z" />
<glyph unicode="&#xe91e;" glyph-name="direction" d="M575.584 864h-160v-96h160v96zM575.584 480v64h-160v-64h160zM415.584 0h160v256h-160v-256zM799.584 576l-69.984 80 69.984 80h-512l-83.2-80 83.2-80h512zM735.584 448h-512l70.016-80-70.016-80h512l84 80-84 80z" />
<glyph unicode="&#xe91f;" glyph-name="bike" horiz-adv-x="1200" d="M959.936 57.696c-134.784 0-244.064 109.248-244.064 244.064 0 98.88 58.944 183.84 143.488 222.176l-32.448 73.056 5.28-12.768-222.208-298.272v-59.808h32.544v-32.576h-97.664v32.576h32.576v32.576l-92.064 8.64c-16.768-118.432-118.272-209.632-241.344-209.632-134.784-0.032-244.032 109.216-244.032 244.032 0 134.784 109.248 244.032 244.064 244.032 35.232 0 68.64-7.616 98.88-21.024l60.992 153.216-27.68 77.312c-12.16 0-23.488 0-32.544 0-30.528 0-22.368 32.544-22.368 32.544s2.016 28.48 24.416 28.48 22.368-20.352 58.976-20.352c35.040 0 85.408-10.144 85.408-10.144s22.368-30.496-20.32-30.496c-19.328 0-40.608 0-61.024 0l23.136-83.104h353.664l-27.776 63.136h-21.6v32.512h130.144v-32.544h-73.536l95.264-200.32c22.72 7.008 46.88 10.784 71.872 10.784 134.784 0 244.064-109.248 244.064-244.032-0.032-134.816-109.312-244.064-244.096-244.064zM244.064 513.28c-116.832 0-211.52-94.688-211.52-211.52s94.688-211.488 211.52-211.488c106.208 0 193.92 78.368 208.96 180.448l-169.408 17.44c-2.688-15.264-15.392-27.072-31.424-27.072-17.984 0-32.544 14.56-32.544 32.576 0 17.952 14.56 32.576 32.544 32.576 3.84 0 7.424-0.992 10.848-2.24l67.872 170.56c-26.528 11.904-55.872 18.72-86.848 18.72zM292.864 316l162.528-17.184c0.032 0.992 0.16 1.952 0.16 2.944 0 75.2-39.328 141.056-98.464 178.592l-64.224-164.352zM418.464 637.376l-49.376-126.336c71.2-42.624 119.008-120.288 119.008-209.312 0-2.112-0.256-4.256-0.32-6.368l55.232-5.824-124.544 347.84zM799.296 659.328v-19.648h-355.84l129.6-346.848 245.984 322.080-19.744 44.416zM959.936 513.28c-20.384 0-40.032-3.040-58.688-8.448l75.968-173.568c15.424-2.496 27.456-15.36 27.456-31.488 0-17.984-14.56-32.576-32.544-32.576s-32.576 14.56-32.576 32.576c0 8.736 3.552 16.672 9.248 22.56l-76.288 171.904c-73.184-33.28-124.128-106.816-124.128-192.448 0-116.8 94.688-211.488 211.488-211.488s211.488 94.688 211.488 211.488-94.624 211.488-211.424 211.488z" />
<glyph unicode="&#xe920;" glyph-name="power-plug" d="M0 256v-76.698c0-14.182 11.52-25.702 25.702-25.702h51.046c14.131 0 25.651 11.52 25.651 25.702v76.698c0 49.101 41.011 116.378 102.4 142.285v107.776c-118.579-27.443-204.8-146.125-204.8-250.061zM617.728 732.109l-129.536-97.178c-17.766-13.312-39.373-20.531-61.594-20.531h-119.142c-28.416 0-51.456-23.040-51.456-51.456v-204.339c0-28.365 23.040-51.405 51.456-51.405h119.142c22.221 0 43.827-7.219 61.594-20.531l129.587-97.178c31.027-23.296 68.813-35.891 107.622-35.891h93.798v614.4h-93.798c-38.81 0-76.595-12.595-107.674-35.891zM870.4 665.6v-102.4h153.6v102.4h-153.6zM870.4 256h153.6v102.4h-153.6v-102.4z" />
<glyph unicode="&#xe921;" glyph-name="linkedin" d="M512-51.2c282.77 0 512 229.23 512 512s-229.23 512-512 512c-282.77 0-512-229.23-512-512s229.23-512 512-512zM381.501 219.529h-115.863v348.623h115.863v-348.623zM323.572 615.737h-0.74c-38.898 0-64.045 26.785-64.045 60.259 0 34.182 25.913 60.218 65.549 60.218s64.045-26.035 64.797-60.218c0-33.474-25.161-60.259-65.56-60.259zM799.342 219.529h-115.858v186.514c0 46.848-16.766 78.816-58.709 78.816-32.010 0-51.076-21.551-59.449-42.366-3.064-7.46-3.816-17.854-3.816-28.273v-194.7h-115.877c0 0 1.527 315.91 0 348.623h115.877v-49.38c15.378 23.738 42.919 57.575 104.435 57.575 76.243 0 133.402-49.838 133.402-156.92l-0.005-199.89z" />
<glyph unicode="&#xe922;" glyph-name="youtube" d="M512-51.2c-282.77 0-512 229.23-512 512s229.23 512 512 512c282.77 0 512-229.23 512-512s-229.23-512-512-512zM511.788 699.733c0 0-213.361 0-266.912-13.915-28.673-8.011-52.283-31.622-60.295-60.716-13.915-53.551-13.915-164.45-13.915-164.45s0-111.32 13.915-164.028c8.012-29.094 31.2-52.283 60.295-60.295 53.973-14.336 266.912-14.337 266.912-14.337s213.784 0 267.334 13.915c29.095 8.012 52.283 30.779 59.873 60.295 14.337 53.13 14.337 164.028 14.337 164.028s0.421 111.321-14.337 164.872c-7.59 29.095-30.778 52.283-59.873 59.873-53.55 14.758-267.334 14.759-267.334 14.759zM409.767 597.247l245.788-141.864-245.788-141.28v283.144z" />
<glyph unicode="&#xf0e5;" glyph-name="comment-o" d="M512 731.428c-237.714 0-438.857-133.714-438.857-292.571 0-85.143 57.143-166.286 156-222.286l49.714-28.571-15.429-54.857c-10.857-40.571-25.143-72-40-98.286 57.714 24 110.286 56.571 157.143 97.714l24.571 21.714 32.571-3.429c24.571-2.857 49.714-4.571 74.286-4.571 237.714 0 438.857 133.714 438.857 292.571s-201.143 292.571-438.857 292.571zM1024 438.857c0-202.286-229.143-365.714-512-365.714-28 0-56 1.714-82.857 4.571-74.857-66.286-164-113.143-262.857-138.286-20.571-5.714-42.857-9.714-65.143-12.571h-2.857c-11.429 0-21.714 9.143-24.571 21.714v0.571c-2.857 14.286 6.857 22.857 15.429 33.143 36 40.571 77.143 74.857 104 170.286-117.714 66.857-193.143 170.286-193.143 286.286 0 202.286 229.143 365.714 512 365.714v0c282.857 0 512-163.429 512-365.714z" />
</font>
</defs>
</svg>
